Login
Username:
Password:
[Signup]
[Recover Account]


Browse Torrents

Poll


You must be logged in to view polls



Latest Torrents
Crucible.of.the.Va...
- [Size: 1.33 GB]

Crucible.of.the.Va...
- [Size: 1.39 GB]

Real.Time.With.Bil...
- [Size: 1,014.34 MB]

Chaamp 2017 1080p ...
- [Size: 3.93 GB]

Journal.64.2018.DA...
- [Size: 8.74 GB]


Torrent Details For "Ponyo 2008 x264 720p Esub BluRay Dual Audio English Hindi Jap GOPISAHI"

Ponyo 2008 x264 720p Esub BluRay Dual Audio English Hindi Jap GOPISAHI

Download this torrent | Magnet Download
Health:
Seeds: 163
Leechers: 147
Completed: 236 
Last Checked: 09-02-2019 15:40:18
External Torrent
Update Stats



Images Host

Poster
No poster


Watch-Free-HD     Download

Details
Name:Ponyo 2008 x264 720p Esub BluRay Dual Audio English Hindi Jap GOPISAHI
Description:




Ponyo 2008 x264 720p Esub BluRay Dual Audio English Hindi Jap GOPISAHI

Format                         : Matroska
Format version                 : Version 4 / Version 2
File size                      : 639 MiB
Duration                       : 1 h 42 min
Overall bit rate               : 874 kb/s
Movie name                     : Ponyo 2008 GOPISAHI

Video
Format                         : AVC
Format/Info                    : Advanced Video Codec
Codec ID                       : V_MPEG4/ISO/AVC
Duration                       : 1 h 40 min
Bit rate                       : 599 kb/s
Width                          : 1 272 pixels
Height                         : 688 pixels
Display aspect ratio           : 1.85:1
Frame rate mode                : Constant
Frame rate                     : 23.976 (24000/1001) FPS
Color space                    : YUV
Chroma subsampling             : 4:2:0
Bit depth                      : 8 bits
Scan type                      : Progressive
Bits/(Pixel*Frame)             : 0.029
Stream size                    : 432 MiB (68%)
Title                          : GOPISAHI
Writing library                : x264 core 157 r2935 545de2f

Audio #1
Format                         : AAC
Duration                       : 1 h 40 min
Bit rate                       : 96.0 kb/s
Channel(s)                     : 2 channels
Channel positions              : Front: L R
Sampling rate                  : 48.0 kHz
Frame rate                     : 46.875 FPS (1024 SPF)
Compression mode               : Lossy
Delay relative to video        : -21 ms
Stream size                    : 69.4 MiB (11%)
Title                          : GOPISAHI
Language                       : Hindi

Audio #2
Format                         : AAC
Duration                       : 1 h 40 min
Bit rate                       : 96.0 kb/s
Channel(s)                     : 2 channels
Channel positions              : Front: L R
Sampling rate                  : 48.0 kHz
Frame rate                     : 46.875 FPS (1024 SPF)
Compression mode               : Lossy
Stream size                    : 69.5 MiB (11%)
Title                          : GOPISAHI
Language                       : English

Audio #3
Format                         : AAC
Duration                       : 1 h 42 min
Bit rate                       : 89.2 kb/s
Channel(s)                     : 2 channels
Channel positions              : Front: L R
Sampling rate                  : 48.0 kHz
Frame rate                     : 46.875 FPS (1024 SPF)
Compression mode               : Lossy
Delay relative to video        : -21 ms
Stream size                    : 65.3 MiB (10%)
Title                          : GOPISAHI
Language                       : Japanese

Text
Language                       : English





Category:Movies > Hollywood Dub
Lang:Hindi
Total Size:638.94 MB
Info Hash:bc460b1e44c238c08baf9372e75186d603edfab3
Added By:gopisahi
Date Added:09-02-2019 03:22:17
Downloads:389

Ratings:Not Yet Rated (Log in to rate it)


Tracker:
udp://tracker.coppersurfer.tk:6969/announce


File List: 


Comments

<< Previous      Next >>
1 - 1

[Report] Posted: 09-02-2019 at 07:01:18
wiki



Thanks BRO KEEP IT Up Animated Moive :)

1 - 1
<< Previous      Next >>


Top
Copyright 2018 DownloadHD -|- Page Generated In 0.340853 secs.
-|- RSS Feed -|- Feed Info