Login
Username:
Password:
[Signup]
[Recover Account]


Browse Torrents

Poll


You must be logged in to view polls



Latest Torrents
Crucible.of.the.Va...
- [Size: 1.33 GB]

Crucible.of.the.Va...
- [Size: 1.39 GB]

Real.Time.With.Bil...
- [Size: 1,014.34 MB]

Chaamp 2017 1080p ...
- [Size: 3.93 GB]

Journal.64.2018.DA...
- [Size: 8.74 GB]


Torrent Details For "Game Of Thrones S02 x264 720p Esub Dual Audio English Hindi GOPISAHI"

Game Of Thrones S02 x264 720p Esub Dual Audio English Hindi GOPISAHI

Download this torrent | Magnet Download
Health:
Seeds: 145
Leechers: 127
Completed: 70 
Last Checked: 09-02-2019 13:23:39
External Torrent
Update Stats



Images Host

Poster
No poster


Watch-Free-HD     Download

Details
Name:Game Of Thrones S02 x264 720p Esub Dual Audio English Hindi GOPISAHI
Description:
 http://www.gopisahi.pw/



Game Of Thrones S02 x264 720p Esub Dual Audio English Hindi GOPISAHI

Format                         : Matroska
Format version                 : Version 4 / Version 2
File size                      : 300 MiB
Duration                       : 52 min 41 s
Overall bit rate               : 795 kb/s

Video
Format                         : AVC
Format/Info                    : Advanced Video Codec
Format profile                 : [email protected]
Codec ID                       : V_MPEG4/ISO/AVC
Duration                       : 52 min 41 s
Bit rate                       : 599 kb/s
Width                          : 1 280 pixels
Height                         : 720 pixels
Display aspect ratio           : 16:9
Frame rate mode                : Constant
Frame rate                     : 23.976 (24000/1001) FPS
Color space                    : YUV
Chroma subsampling             : 4:2:0
Bit depth                      : 8 bits
Scan type                      : Progressive
Bits/(Pixel*Frame)             : 0.027
Stream size                    : 226 MiB (75%)
Title                          : GOPISAHI
Writing library                : x264 core 157 r2935 545de2f

Audio #1
Format                         : AAC
Duration                       : 52 min 36 s
Bit rate                       : 96.0 kb/s
Channel(s)                     : 2 channels
Channel positions              : Front: L R
Sampling rate                  : 48.0 kHz
Frame rate                     : 46.875 FPS (1024 SPF)
Compression mode               : Lossy
Delay relative to video        : -21 ms
Stream size                    : 36.4 MiB (12%)
Title                          : GOPISAHI
Language                       : Hindi

Audio #2
Format                         : AAC
Duration                       : 52 min 41 s
Bit rate                       : 96.0 kb/s
Channel(s)                     : 2 channels
Channel positions              : Front: L R
Sampling rate                  : 48.0 kHz
Frame rate                     : 46.875 FPS (1024 SPF)
Compression mode               : Lossy
Delay relative to video        : -12 ms
Stream size                    : 36.4 MiB (12%)
Title                          : GOPISAHI
Language                       : English

Text
Language                       : English

Menu
00:00:00.000                   : en:00:00:00.000
00:01:54.573                   : en:00:01:54.531
00:10:16.157                   : en:00:10:16.157
00:18:15.511                   : en:00:18:15.511
00:24:27.299                   : en:00:24:27.216
00:31:39.689                   : en:00:31:39.689
00:41:03.795                   : en:00:41:03.670
00:51:21.829                   : en:00:51:21.704



Category:Movies > Hollywood Dub
Lang:Hindi
Total Size:2.95 GB
Info Hash:bfce8870a88c950ccfde8347b685cdbc3d606632
Added By:gopisahi
Date Added:09-02-2019 05:20:32
Downloads:246

Ratings:Not Yet Rated (Log in to rate it)


Tracker:
udp://tracker.coppersurfer.tk:6969/announce


File List: 


Comments

No comments still posted

Top
Copyright 2018 DownloadHD -|- Page Generated In 0.598475 secs.
-|- RSS Feed -|- Feed Info